bt天堂

[其他动漫] [Mabors-Raws] 朝花夕誓 让誓约的花儿点缀起别离的晨曦 (BDrip 1920x1080 HEVC-YUV420P10 FLAC TrueHD JP



image

監督: 岡田麿里
形式: Color, Dolby, Widescreen
字幕: 日本語
リージョンコード: リージョンフリー(全世界共通)
画面サイズ: 1.78:1
ディスク枚数: 2
販売元: バンダイナムコアーツ
発売日 2018/10/26
時間: 115 分
おすすめ度: 5つ星のうち 4.8 36件のカスタマーレビュー
ASIN: B07DXPY1XC
JAN: 4934569363718

内容紹介

岡田麿里 初監督作品
P.A.WORKSと贈る、大ヒットオリジナル感動巨編!

出会いと別れの物語に、胸が締め付けられる
愛して、よかった。

◎仕様◎
【映像特典】※本編Disc収録
・特報
・予告
・PC1マキアとエリアル篇
・PV2それぞれの想い篇
・PV3巡り合う世界篇
・CM集
【映像特典】※特典Disc(DVD)収録
・制作メイキング(約40分予定、舞台挨拶映像有り)
・ビデオコンテ(115分)
【特典】
・岡田麿里書き下ろし・短編シナリオ
・特製ブックレット(80P予定)
・縮刷版劇場パンフレット(36P)※ポスターは無し
【他、仕様】
・キャラクターデザイン原案:吉田明彦描き下ろし三方背BOX
・キャラクターデザイン・総作画監督:石井百合子描き下ろしインナージャケット

◎内容◎
縦糸は流れ行く月日。横糸は人のなりわい。人里離れた土地に住み、ヒビオルと呼ばれる布に
日々の出来事を織り込みながら静かに暮らすイオルフの民。10代半ばで外見の成長が止まり数百年の寿命を持つ彼らは、
“別れの一族"と呼ばれ、生ける伝説とされていた。両親のいないイオルフの少女マキアは、仲間に囲まれた
穏やかな日々を過ごしながらも、どこかで“ひとりぼっち"を感じていた。そんな彼らの日々は、一瞬で崩れ去る。
イオルフの長寿の血を求め、レナトと呼ばれる古の獣に跨りメザーテ軍が攻め込んできたのだ。絶望と混乱の中、
イオルフ一番の美女レイリアはメザーテに連れさられ、マキアが密かに想いを寄せる少年クリムは行方不明に。
マキアはなんとか逃げ出したが、仲間も帰る場所も失ってしまう……。
虚ろな心で暗い森をさまようマキア。そこで呼び寄せられるように出会ったのは、親を亡くしたばかりの
“ひとりぼっち"の赤ん坊だった。少年へと成長していくエリアル。時が経っても少女のままのマキア。
同じ季節に、異なる時の流れ。変化する時代の中で、色合いを変えていく二人の絆――。

◎キャスト◎
マキア:石見舞菜香/エリアル:入野自由/レイリア:茅野愛衣/クリム:梶 裕貴/ラシーヌ:沢城みゆき
ラング:細谷佳正/ミド:佐藤利奈/ディタ:日笠陽子/メドメル:久野美咲/イゾル:杉田智和/バロウ:平田広明

内容(「キネマ旬報社」データベースより)

『心が叫びたがってるんだ。』の脚本家・岡田麿里が初監督を務めたファンタジーアニメ。数百年の寿命を持つイオルフの民は平穏な日々を過ごしていたが、その長寿の血を求め、古の獣を操る軍隊が侵攻を開始する。ブックレットほかを封入。
引用General
Unique ID                      : 208406334867468036814912745015203232515 (0x9CC9999FA3339ED16F630EFE7C2A7B03)
Complete name                  : X:\[Mabors-Raws] Sayonara no Asa ni Yakusoku no Hana o Kazarou (BDrip 1920x1080 HEVC-YUV420P10 FLAC TrueHD JP&GB&BIG5)\[Mabors-Raws] Sayonara no Asa ni Yakusoku no Hana o Kazarou [Movie](BDrip 1920x1080 HEVC-YUV420P10 FLAC TrueHD JP&GB&BIG5).mkv
Format                         : Matroska
Format version                 : Version 4 / Version 2
File size                      : 12.6 GiB
Duration                       : 1 h 54 min
Overall bit rate mode          : Variable
Overall bit rate               : 15.8 Mb/s
Encoded date                   : UTC 2018-11-13 10:11:01
Writing application            : mkvmerge v25.0.0 ('Prog Noir') 64-bit
Writing library                : libebml v1.3.6 + libmatroska v1.4.9
Attachments                    : [诺诺自补]青柳体.ttf / 2.TTF / FOT-SkipStd-B.otf / msyhbd_0.ttc / SourceHanSerifSC-SemiBold.otf

Video
ID                             : 1
Format                         : HEVC
Format/Info                    : High Efficiency Video Coding
Format profile                 : Main [email protected]@Main
Codec ID                       : V_MPEGH/ISO/HEVC
Duration                       : 1 h 54 min
Bit rate                       : 10.8 Mb/s
Width                          : 1 920 pixels
Height                         : 1 080 pixels
Display aspect ratio           : 16:9
Frame rate mode                : Constant
Frame rate                     : 23.976 (24000/1001) FPS
Color space                    : YUV
Chroma subsampling             : 4:2:0
Bit depth                      : 10 bits
Bits/(Pixel*Frame)             : 0.217
Stream size                    : 8.64 GiB (68%)
Writing library                : x265 2.8g0ad419482+18:[Windows][GCC 7.1.0][64 bit] Yuuki 10bit
Encoding settings              : rc=crf / crf=17.0000 / qcomp=0.70 / qpstep=4 / aq-mode=1 / aq-strength=1.00 / cbqpoffs=0 / crqpoffs=0 / ipratio=1.40 / pbratio=1.30 / psy-rd=4.00 / psy-rdoq=6.00 / deblock=-1:-1 / ref=5 / bframes=8 / b-adapt=2 / bframe-bias=0 / b-pyramid / b-intra / weightp / weightb / min-keyint=1 / max-keyint=150 / rc-lookahead=70 / gop-lookahead=0 / scenecut=40 / radl=0 / max-cu-size=32 / min-cu-size=8 / me=2 / subme=7 / merange=48 / rdoq-level=1 / rd=5 / rdpenalty=1 / ----- / cutree / no-sao / rect / no-amp / no-open-gop / wpp / no-pmode / no-pme / no-psnr / no-ssim / nr-intra=0 / nr-inter=0 / no-constrained-intra / strong-intra-smoothing / max-tu-size=32 / tu-inter-depth=3 / tu-intra-depth=3 / limit-tu=4 / qg-size=32 / qpmax=69 / qpmin=0 / ----- / cpuid=1049583 / frame-threads=5 / numa-pools=16,16 / log-level=2 / input-csp=1 / input-res=1920x1080 / interlace=0 / level-idc=0 / high-tier=1 / uhd-bd=0 / no-allow-non-conformance / no-repeat-headers / no-aud / no-hrd / info / hash=0 / no-temporal-layers / lookahead-slices=0 / no-intra-refresh / dynamic-rd=0.00 / no-ssim-rd / signhide / no-tskip / max-merge=4 / limit-refs=1 / limit-modes / temporal-mvp / no-analyze-src-pics / no-sao-non-deblock / no-early-skip / rskip / no-fast-intra / no-tskip-fast / no-cu-lossless / no-splitrd-skip / no-rd-refine / no-lossless / zone-count=0 / no-strict-cbr / no-rc-grain / no-const-vbv / sar=0 / overscan=0 / videoformat=5 / range=0 / colorprim=2 / transfer=2 / colormatrix=1 / chromaloc=0 / display-window=0 / max-cll=0,0 / min-luma=0 / max-luma=1023 / log2-max-poc-lsb=8 / vui-timing-info / vui-hrd-info / slices=1 / no-opt-qp-pps / no-opt-ref-list-length-pps / no-multi-pass-opt-rps / scenecut-bias=0.05 / no-opt-cu-delta-qp / no-aq-motion / no-hdr / no-hdr-opt / no-dhdr10-opt / no-idr-recovery-sei / analysis-reuse-level=5 / scale-factor=0 / refine-intra=0 / refine-inter=0 / refine-mv=0 / no-limit-sao / ctu-info=0 / no-lowpass-dct / refine-mv-type=0 / copy-pic=1 / max-ausize-factor=1.0 / no-dynamic-refine / no-single-sei
Default                        : Yes
Forced                         : No
Color range                    : Limited
Matrix coefficients            : BT.709

Audio #1
ID                             : 2
Format                         : TrueHD
Codec ID                       : A_TRUEHD
Duration                       : 1 h 54 min
Bit rate mode                  : Variable
Bit rate                       : 3 341 kb/s
Maximum bit rate               : 5 148 kb/s
Channel(s)                     : 6 channels
Channel positions              : Front: L C R, Side: L R, LFE
Sampling rate                  : 48.0 kHz
Frame rate                     : 1 200.000 FPS (40 SPF)
Compression mode               : Lossless
Stream size                    : 2.68 GiB (21%)
Title                          : 正片5.1
Language                       : Japanese
Default                        : Yes
Forced                         : No

Audio #2
ID                             : 3
Format                         : FLAC
Format/Info                    : Free Lossless Audio Codec
Codec ID                       : A_FLAC
Duration                       : 1 h 54 min
Bit rate mode                  : Variable
Bit rate                       : 1 355 kb/s
Channel(s)                     : 2 channels
Channel positions              : Front: L R
Sampling rate                  : 48.0 kHz
Frame rate                     : 11.719 FPS (4096 SPF)
Bit depth                      : 24 bits
Stream size                    : 1.09 GiB (9%)
Title                          : 正片2.0
Writing library                : libFLAC 1.2.1 (UTC 2007-09-17)
Language                       : Japanese
Default                        : No
Forced                         : No

Text #1
ID                             : 4
Format                         : ASS
Codec ID                       : S_TEXT/ASS
Codec ID/Info                  : Advanced Sub Station Alpha
Duration                       : 1 h 53 min
Bit rate                       : 72 b/s
Count of elements              : 1337
Compression mode               : Lossless
Stream size                    : 60.0 KiB (0%)
Title                          : 简体中文
Language                       : Chinese
Default                        : Yes
Forced                         : No

Text #2
ID                             : 5
Format                         : ASS
Codec ID                       : S_TEXT/ASS
Codec ID/Info                  : Advanced Sub Station Alpha
Duration                       : 1 h 53 min
Bit rate                       : 72 b/s
Count of elements              : 1337
Compression mode               : Lossless
Stream size                    : 60.0 KiB (0%)
Title                          : 繁体中文
Language                       : Chinese
Default                        : No
Forced                         : No

Text #3
ID                             : 6
Format                         : PGS
Muxing mode                    : zlib
Codec ID                       : S_HDMV/PGS
Codec ID/Info                  : Picture based subtitle format used on BDs/HD-DVDs
Duration                       : 1 h 53 min
Bit rate                       : 328 kb/s
Count of elements              : 22128
Stream size                    : 267 MiB (2%)
Title                          : 日文
Language                       : Japanese
Default                        : No
Forced                         : No

Menu
00:00:00.000                   : zh:00:00:00.000
00:05:48.473                   : zh:00:05:48.473
00:12:58.861                   : zh:00:12:58.861
00:16:44.170                   : zh:00:16:44.170
00:23:16.770                   : zh:00:23:16.770
00:32:22.941                   : zh:00:32:22.941
00:42:35.678                   : zh:00:42:35.678
00:48:53.848                   : zh:00:48:53.848
00:57:57.432                   : zh:00:57:57.432
01:10:14.419                   : zh:01:10:14.419
01:14:20.956                   : zh:01:14:20.956
01:23:31.840                   : zh:01:23:31.840
01:28:38.396                   : zh:01:28:38.396
01:34:28.037                   : zh:01:34:28.037
01:39:32.300                   : zh:01:39:32.300
01:41:58.195                   : zh:01:41:58.195
01:49:19.386                   : zh:01:49:19.386
01:54:35.869                   : zh:01:54:35.869

 
引用感謝U3-Project
內掛日文BD-SUB字幕
OST From TSDM
感谢贾总帮忙压制
下载地址列表: [ 更多电影资源尽在:bt之家电影论坛 | 下载帮助 ]
磁力下载
#1楼
发帖时间:1月前   |   查看数:0   |   回复数:0
游客组